#TITLE:IRRESISTIBLEMENT;
#SUBTITLE:~Full Version~;
#ARTIST:WILDSIDE;
#TITLETRANSLIT:;
#SUBTITLETRANSLIT:;
#ARTISTTRANSLIT:;
#CREDIT:;
#BANNER:IRRESISTIBLEMENT.png;
#BACKGROUND:IRRESISTIBLEMENT-bg.png;
#LYRICSPATH:;
#CDTITLE:!otteroTitle.png;
#MUSIC:IRRESISTIBLEMENT (Long Version).mp3;
#OFFSET:-1.659;
#SAMPLESTART:11.720;
#SAMPLELENGTH:12.000;
#SELECTABLE:YES;
#DISPLAYBPM:166.000;
#BPMS:0.000=166.000;
#STOPS:;
#BGCHANGES:;
// cache tags:
#FIRSTBEAT:0.000;
#LASTBEAT:623.500;
#SONGFILENAME:Songs/Music V.I.P ^_^/Irresistiblement- Otter/IRRESISTIBLEMENT.sm;
#HASMUSIC:1;
#HASBANNER:1;
#MUSICLENGTH:231.815;
// end cache tags

//---------------dance-single - ----------------
#NOTES:
     dance-single:
     :
     Hard:
     11:
     1.000,1.000,1.000,0.125,1.000,1613.000,290.000,29.000,0.000,14.000:
1000
0100
0010
0001
0010
0100
1000
0101
,
0000
1010
0000
0101
0000
0000
0000
0000
,
1000
0100
1000
0010
0100
0001
0010
0101
,
0000
0011
0000
1100
0000
0000
0000
0000
,
1000
0100
0010
0100
1000
0010
1000
1100
,
0000
0011
0000
0101
0000
0000
0000
0000
,
1000
0010
0100
0001
0100
0010
0100
0101
,
0000
1010
0000
1100
0000
0000
0000
1000
,
0001
0100
0001
1000
0010
0100
0100
0101
,
0000
2200
0000
0000
0000
0000
3300
0000
,
0011
0100
1010
0100
0011
0100
1001
0010
,
0101
1000
1010
1100
1100
0011
0011
0100
,
0001
0010
0100
0010
0001
1000
1000
1100
,
0000
0022
0000
0000
0000
0000
0033
0000
,
0011
0100
1010
0100
0011
0100
1001
0010
,
0101
0000
1000
0000
1010
0000
1100
0000
1100
0000
0011
0000
0011
0000
1000
0100
,
0010
0001
0010
0100
1000
0010
1000
0100
0010
0100
1000
0010
0100
0001
1000
0100
,
1000
0010
0100
0001
0010
0001
0100
0010
0100
0001
1000
0100
0010
0000
0001
0100
,
0001
0000
1000
0010
1000
0000
0010
1000
0001
0000
0010
0001
0010
0000
0100
1000
,
0100
0000
0010
0001
0010
0000
0001
0100
0001
0000
1000
0010
1000
0000
0100
1000
,
0010
0000
0100
0001
0010
0000
0100
1000
0010
0000
0100
0001
0010
0000
1100
0000
,
0010
0001
0010
0000
0101
0000
0000
0000
1010
0000
1100
0000
0011
0000
1100
0000
,
0010
0001
0010
0000
0101
0000
0000
0000
1010
0000
1100
0000
0011
0000
1100
0000
,
0010
0101
1000
0011
0001
1010
0000
0101
,
0010
1100
0011
0000
1100
0011
0000
1010
,
0010
0110
0100
0011
0100
1100
0000
0101
,
0010
1100
0010
0000
1100
0011
0000
0101
,
1000
1010
0100
0011
0100
1100
0010
1100
,
0010
0001
0010
0000
0101
0000
0000
0000
1010
0000
1100
0000
0011
0000
1100
0000
,
0010
0001
0010
0000
0101
0000
0000
0000
1010
0000
1100
0000
0011
0000
1100
0000
,
0010
0101
1000
0011
0001
1010
0000
0101
,
0010
1100
0011
0000
1100
0011
0000
1010
,
0010
0110
0100
0011
0100
1100
0000
0101
,
0010
1100
0010
0000
1100
0011
0000
0101
,
1000
1010
0100
0011
0100
1100
0010
1100
,
0010
0001
0010
0000
0101
0000
0000
0000
1010
0000
1100
0000
0011
0000
1100
0000
,
0010
0001
0010
0000
0101
0000
0000
0000
1010
0000
1100
0000
0011
0000
1100
0000
,
1010
0110
0101
0000
0011
0110
1100
1010
,
0110
0101
1010
0000
1100
0011
1100
0000
,
1000
0100
0010
0001
0010
0100
1000
0010
1000
0100
0010
0001
0100
0001
0010
0100
,
1000
0010
0100
0010
1000
0001
0100
0010
1000
0100
0010
0000
0000
0000
0000
0000
,
0001
0100
0001
0010
0001
0100
0010
1000
0100
1000
0010
1000
0100
0010
0001
0010
,
0100
1000
0001
0100
0010
1000
0100
0010
0001
0100
0010
0000
0000
0000
0000
0000
,
1000
0100
0010
0001
0010
0100
1000
0010
0100
0010
1000
0100
0010
0100
1000
0010
,
0100
0001
0100
0010
1000
0100
0010
0001
0100
0001
0010
0000
0000
0000
0000
0000
,
0100
1000
0010
1000
0100
1000
0010
1000
0100
0010
0001
0100
0001
0010
0202
0000
,
0000
0000
0000
0000
0000
0303
2000
0200
,
3020
0000
0302
0030
0020
0000
0203
0000
2030
0000
0320
0000
3200
0000
0032
0000
,
0320
0000
0203
0000
2030
0000
0320
0000
3200
0000
0032
0000
0320
0033
1000
0100
,
0010
0001
0010
0100
1000
0010
1000
0100
1000
0010
0100
0001
0010
0001
0100
0001
,
0010
0100
1000
0001
0100
0010
1000
0100
0010
0001
0010
0100
1000
0010
0100
0001
,
1000
0100
1000
0010
1000
0100
0010
0001
0100
0001
0010
0100
1000
0010
0100
0001
,
1000
0100
0010
0001
0100
0010
1000
0010
0100
0001
1000
0100
1000
0100
0010
0001
,
0010
0100
1000
0010
1000
0001
0100
0010
1000
0100
0010
0001
0100
0000
1100
0000
,
1010
0110
0101
0000
0011
0110
1100
1010
,
0110
0000
0101
0000
1010
0000
0000
0000
1100
0000
0011
0000
1100
0000
0010
0100
,
0001
0010
0100
1000
0100
0010
0001
0100
0001
0010
0001
0100
0010
1000
0100
1000
,
0010
1000
0100
0010
0100
1000
0001
0100
0010
1000
0010
0100
0001
0010
0001
1000
,
0100
1000
0001
0010
0001
0100
0001
0010
0100
1000
0010
1000
0100
1000
0010
0100
,
0001
0100
0010
1000
0010
0100
0001
1000
0100
0010
0001
0010
0100
1000
0010
0100
,
0001
0100
0001
0010
0100
1000
0001
0100
0001
1000
0010
1000
0010
0000
1100
0000
,
1010
0110
0101
0000
0011
0110
1100
1010
,
0110
0101
1010
0000
1100
0011
1100
0000
,
1000
0100
0010
0001
0010
0100
1000
0010
1000
0100
0010
0001
0100
0001
0010
0100
,
1000
0010
0100
0010
1000
0001
0100
0010
1000
0100
0010
0000
0000
0000
0000
0000
,
0001
0100
0001
0010
0001
0100
0010
1000
0100
1000
0010
1000
0100
0010
0001
0010
,
0100
1000
0001
0100
0010
1000
0100
0010
0001
0100
0010
0000
0000
0000
0000
0000
,
1000
0100
0010
0001
0010
0100
1000
0010
0100
0010
1000
0100
0010
0100
1000
0010
,
0100
0001
0100
0010
1000
0100
0010
0001
0100
0001
0010
0000
0000
0000
0000
0000
,
0100
1000
0010
1000
0100
1000
0010
1000
0100
0010
0001
0100
0001
0010
0202
0000
,
0000
0000
0000
0000
0000
0303
0000
0101
,
0010
0000
1010
0000
0100
0000
0110
0000
0010
0000
1100
0000
0000
0000
1000
0100
,
0010
0001
0010
0100
1000
0010
1000
0100
0010
0100
1000
0010
0100
0001
1000
0100
,
1000
0010
0100
0001
0010
0001
0100
0010
0100
0001
1000
0100
0010
0000
0001
0100
,
0001
0000
1000
0010
1000
0000
0010
1000
0001
0000
0010
0001
0010
0000
0100
1000
,
0100
0000
0010
0001
0010
0000
0001
0100
0001
0000
1000
0010
1000
0000
0100
1000
,
0010
0000
0100
0001
0010
0000
0100
1000
0010
0000
0100
0001
0010
0000
1100
0000
,
0010
0001
0010
0000
0101
0000
0000
0000
1010
0000
1100
0000
0011
0000
1100
0000
,
0010
0001
0010
0000
0101
0000
0000
0000
1010
0000
1100
0000
0011
0000
1000
0100
,
0010
0001
0010
0100
1000
0010
0100
0001
0100
0010
1000
0010
0100
0001
0010
0001
,
0100
0001
0010
0100
1000
0010
1000
0100
1000
0010
0100
0001
0010
0100
1000
0010
,
0100
0010
1000
0010
0100
0001
0100
0010
1000
0010
0100
0001
0100
0001
1000
0100
,
0010
0001
0010
0100
1000
0010
1000
0100
0010
0001
0100
0001
0010
0001
0010
0100
,
1000
0010
1000
0100
1000
0100
0010
0001
0100
0010
1000
0100
0010
0001
0101
0000
,
0110
1010
1100
0000
0110
0011
0101
0110
,
1010
1100
0110
0000
0011
0101
0110
0000
,
1000
0100
0010
0001
0010
0100
1000
0010
1000
0100
0010
0001
0100
0001
0010
0100
,
1000
0010
0100
0010
1000
0001
0100
0010
1000
0100
0010
0000
0000
0000
0000
0000
,
0001
0100
0001
0010
0001
0100
0010
1000
0100
1000
0010
1000
0100
0010
0001
0010
,
0100
1000
0001
0100
0010
1000
0100
0010
0001
0100
0010
0000
0000
0000
0000
0000
,
1000
0100
0010
0001
0010
0100
1000
0010
0100
0010
1000
0100
0010
0100
1000
0010
,
0100
0001
0100
0010
1000
0100
0010
0001
0100
0001
0010
0000
0000
0000
0000
0000
,
0100
1000
0010
1000
0100
1000
0010
1000
0100
0010
0001
0100
0001
0010
0202
0000
,
0000
0000
0000
0000
0000
0303
1100
0011
,
0101
1010
1100
0011
0101
1010
0000
1000
,
0100
0010
0001
0010
0100
1000
0010
0100
,
0001
0010
0001
0100
0001
0010
0100
1000
,
0010
1000
0100
1000
0100
0010
0001
0010
,
0100
1000
0010
0100
0001
1000
0100
1000
,
0100
0010
0001
0010
0001
0100
0001
0100
,
0001
1000
0010
1000
0010
0100
0001
0010
,
0100
1000
0010
0100
0001
1000
0100
0010
,
0001
0100
0010
1000
0100
0010
0001
0100
,
0101
0010
1100
0100
0011
0100
1010
0101
,
0000
1010
0000
0101
0000
0000
0000
0000
,
1100
0010
0101
0010
1010
0100
0101
1100
,
0000
0011
0000
1100
0000
0000
0000
0000
,
0101
0010
1100
0100
0011
0100
1010
0101
,
0000
1010
0000
0101
0000
0000
0000
0000
,
1100
0010
0101
0010
1010
0100
0101
1100
,
0000
0000
0011
0000
0000
0000
1100
0000
0000
0000
0000
0000
0000
0000
1000
0100
,
0010
0001
0100
0000
0010
0000
1000
0100
1000
0000
0001
0010
0001
0000
0100
0010
,
1000
0001
0010
0000
0100
0000
1000
0010
1000
0000
0001
0100
0001
0000
1000
0010
,
1000
0100
1000
0000
0010
0000
1000
0100
0010
0000
0001
0100
0010
0000
0100
0001
,
0010
0001
0100
0000
0001
0000
0010
0100
1000
0000
0010
0100
0001
0000
1000
0100
,
0010
0001
0100
0000
0010
0000
1000
0100
1000
0000
0001
0010
0001
0000
0100
0010
,
1000
0001
0010
0000
0100
0000
1000
0010
1000
0000
0001
0100
0001
0000
1000
0010
,
1000
0100
1000
0000
0010
0000
1000
0100
0010
0000
0001
0100
0010
0000
0100
0001
,
0010
0001
0100
0000
0001
0000
0010
0100
1000
0000
0010
0100
0001
0000
0101
0000
,
0000
1010
0000
1100
0011
1100
0011
1100
,
0000
1010
0000
0101
1010
0101
1010
0101
,
0000
1010
0000
1100
0011
1100
0011
1100
,
0000
0000
1010
0000
0000
0000
0101
0000
1010
0000
0101
0000
1010
0000
1000
0100
,
0010
0000
0000
0001
0000
0000
1000
0000
0000
0100
0000
0000
0010
0000
0000
0001
0000
0000
0010
0000
0000
0100
0000
0000
1000
0000
0000
0100
0000
0000
0010
0000
0000
0001
0000
0000
0100
0000
0010
0000
1000
0000
0100
0000
0000
0010
0000
0000
,
0001
0000
0000
0100
0000
0000
0001
0000
0000
0010
0000
0000
0100
0000
0000
1000
0000
0000
0010
0000
0000
0100
0000
0000
0001
0000
0000
1000
0000
0000
0100
0000
0000
0010
0000
0000
0001
0000
0100
0000
0010
0000
1000
0000
0000
0100
0000
0000
,
0010
0000
0000
0001
0000
0000
1000
0000
0000
0100
0000
0000
0010
0000
0000
0001
0000
0000
0010
0000
0000
0100
0000
0000
1000
0000
0000
0100
0000
0000
0010
0000
0000
0001
0000
0000
0100
0000
0010
0000
1000
0000
0100
0000
0000
0010
0000
0000
,
0001
0000
0000
0100
0000
0000
0001
0000
0000
0010
0000
0000
0100
0000
0000
1000
0000
0000
0010
0000
0000
0100
0000
0000
0001
0000
0000
1000
0000
0000
0100
0000
0000
0010
0000
0000
0001
0000
0100
0000
0010
0000
1000
0000
0000
0100
0000
0000
,
0010
0001
0010
0100
1000
0010
1000
0100
0010
0100
1000
0010
0100
0001
1000
0100
,
1000
0010
0100
0001
0010
0001
0100
0010
0100
0001
1000
0100
0010
0000
0001
0100
,
0001
0000
1000
0010
1000
0000
0010
1000
0001
0000
0010
0001
0010
0000
0100
1000
,
0100
0000
0010
0001
0010
0000
0001
0100
0001
0000
1000
0010
1000
0000
0100
1000
,
0010
0000
0100
0001
0010
0000
0100
1000
0010
0000
0100
0001
0010
0000
1100
0000
,
0010
0001
0010
0000
0101
0000
0000
0000
1010
0000
1100
0000
0011
0000
1100
0000
,
0010
0001
0010
0000
0101
0000
0000
0000
1010
0000
1100
0000
0011
0000
1000
0100
,
0010
0001
0010
0100
1000
0010
0100
0001
0100
0010
1000
0010
0100
0001
0010
0001
,
0100
0001
0010
0100
1000
0010
1000
0100
1000
0010
0100
0001
0010
0100
1000
0010
,
0100
0010
1000
0010
0100
0001
0100
0010
1000
0010
0100
0001
0100
0001
1000
0100
,
0010
0001
0010
0100
1000
0010
1000
0100
0010
0001
0100
0001
0010
0001
0010
0100
,
1000
0010
1000
0100
1000
0100
0010
0001
0100
0010
1000
0100
0010
0001
0101
0000
,
0110
1010
1100
0000
0110
0011
0101
0110
,
1010
0000
1100
0000
0110
0000
0000
0000
0011
0000
0101
0000
0110
0000
1000
0100
,
0010
0001
0010
0100
1000
0010
1000
0100
0010
0100
1000
0010
0100
0001
1000
0100
,
1000
0010
0100
0001
0010
0001
0100
0010
0100
0001
0100
0010
0000
0000
0000
0000
,
0000
0000
1000
0010
1000
0000
0010
1000
0001
0000
0010
0001
0010
0000
0100
1000
,
0100
0000
0010
0001
0010
0000
0001
0100
0001
0000
1000
0010
1000
0000
0100
1000
,
0010
0000
0100
0001
0010
0000
0100
1000
0010
0000
0100
0001
0010
0000
1100
0000
,
0010
0001
0010
0000
0101
0000
0000
0000
1010
0000
1100
0000
0011
0000
1100
0000
,
0010
0001
0010
0000
0101
0000
0000
0000
1010
0000
1100
0000
1100
0000
0010
0100
,
0001
0010
0100
1000
0100
0010
0001
0100
0001
0010
0001
0100
0010
1000
0100
1000
,
0010
1000
0100
0010
0100
1000
0001
0100
0010
1000
0010
0100
0001
0010
0001
1000
,
0100
1000
0001
0010
0001
0100
0001
0010
0100
1000
0010
1000
0100
1000
0010
0100
,
0001
0100
0010
1000
0010
0100
0001
1000
0100
0010
0001
0010
0100
1000
0010
0100
,
0001
0100
0001
0010
0100
1000
0001
0100
0001
1000
0010
1000
0010
0000
1100
0000
,
1010
0110
0101
0000
0011
0110
1100
1010
,
0110
0101
1010
0000
1100
0011
1100
0022
,
0000
0000
0000
0000
0000
0000
0000
0033
;
